Skip to main content

Max Creek Live at The Webster Theatre on 2000-12-31




Max Creek
12/31/2000
The Webster Theatre
Hartford, CT

New Year's Eve Party (Part 2)

-SET 1-
d1t01 - Eminence Front
d1t02 - After Midnight >
d1t03 - In The Midnight Hour >
d1t04 - Louisiana Sun >
d1t05 - Said And Done >
d1t06 - Dark Water >
d1t07 - New Year's countdown jam
d1t08 - announcement
d1t09 - Auld Lang Syne
d2t01 - ICU
d2t02 - Lawyers, Guns And Money

-SET 2-
d2t03 - stage announcements
d2t04 - "2001: A Space Odyssey" jam >
d2t05 - Jones >
d20t6 - You're The Only One
d2t07 - Katie Mae >
d2t08 - In Harmony >
d3t01 - Slow Down // >
d3t02 - Thank You (Falettinme Be Mice Elf Agin) >
d3t03 - Down By The River >
d3t04 - Grateful Dead medley >
d3t05 - Bertha
-ENCORE-
d3t06 - announcements
d3t07 - Just A Rose



-FOR TRADE ONLY- NEVER FOR SALE-

Source: SBD>Cass Master(MarantzPMD-430)

Transfer: Cass Master(MarantzPMD-430)>SonyPCM-R300(A/D passthrough w/SBM 20bit processing)>PC(Edirol UA-1D@44.1kHz)>Soundforge9>wav>flac(level7)

recording and transfer : Brian (fryinbri11@yahoo.com)


Collection MaxCreek
Band/Artist Max Creek
Venue The Webster Theatre
Location Hartford, CT

Source SBD>Cass Master(MarantzPMD-430)
Lineage Cass Master(MarantzPMD-430)>SonyPCM-R300(A/D passthrough w/SBM 20bit processing)>PC(Edirol UA-1D@44.1kHz)>Soundforge9>wav>flac(level7)
Taped by fryinbri
Transferred by fryinbri

Notes

FFP:
mc2000-12-31d1t01.flac:0c6764d9e00e2645f1e8ed9656bd4506
mc2000-12-31d1t02.flac:b2d61788172d653c05b90fd1d0ec32b4
mc2000-12-31d1t03.flac:348672fa4a1300b35701db49f0c745d4
mc2000-12-31d1t04.flac:6cda2ec6d894f6be82557ae2c66d96a1
mc2000-12-31d1t05.flac:bde6c6c2e8ebafaf3ce9fb12826aeba4
mc2000-12-31d1t06.flac:49e51487c388309b8423c434d1cb4fdc
mc2000-12-31d1t07.flac:0925e3c02429fab93a57056571496ddb
mc2000-12-31d1t08.flac:3c2fe226caff60237325e0472acb75e8
mc2000-12-31d1t09.flac:6ba1ed480c726ae1bf7835dac6e5f903
mc2000-12-31d2t01.flac:235778228b1dbbf4a9b2c40c4a1d35ee
mc2000-12-31d2t02.flac:112133741acccae13b6fc40e7e81c386
mc2000-12-31d2t03.flac:bbd41c3754e91a2fe3d42f90d75db5a8
mc2000-12-31d2t04.flac:35e9cfe62aa603fac1e4168032fe7833
mc2000-12-31d2t05.flac:a9ccdcfbb4b6e50f24b6fb048b15564c
mc2000-12-31d2t06.flac:6c1ed25460f18bb4cb19d01924810a60
mc2000-12-31d2t07.flac:6b44c74342cca336166e0de399cddea0
mc2000-12-31d2t08.flac:6f1bdb57d1722cbca8937de7881b0611
mc2000-12-31d3t01.flac:524ebffc534a7b029278d97b735ed43c
mc2000-12-31d3t02.flac:a061db68dec02dd7e452d8b8761c3c63
mc2000-12-31d3t03.flac:ad9338cdb339ea3ba7291dd2356c5cc5
mc2000-12-31d3t04.flac:6db2b7dc74cdac435b034a7d8088f1a1
mc2000-12-31d3t05.flac:b887323c6a423de511fc9fb29e8bf804
mc2000-12-31d3t06.flac:c26a0290c00dad47fe55cd66167aea5a
mc2000-12-31d3t07.flac:8dec12e7aa928f36f2c070067d990f67

MD5:
406fe3f1246781e86d5795f8d1997f38 *mc2000-12-31d1t01.flac
7c2d669262a3d84221746d663e45b92e *mc2000-12-31d1t02.flac
f7c15d31c50a2f7901222bb7ed748f58 *mc2000-12-31d1t03.flac
f938b2f2b4f527eb04995efd2f62c6d0 *mc2000-12-31d1t04.flac
5454db9e2ef7e545d85f31cc3d38334d *mc2000-12-31d1t05.flac
06ab7a0f9b0498f30c4504e93158ab48 *mc2000-12-31d1t06.flac
2492ad14f375ccf617b551b193855b12 *mc2000-12-31d1t07.flac
1c324912eb29cb83cde9dd7839ba037b *mc2000-12-31d1t08.flac
0e279ce41287d901150ffea06f07c3a8 *mc2000-12-31d1t09.flac
e2372c98a97612ca38a2024d7c16d509 *mc2000-12-31d2t01.flac
7587941c029185f52faaaad47276bb83 *mc2000-12-31d2t02.flac
b7c357161a227d24bc15ea38392d5449 *mc2000-12-31d2t03.flac
15e1f07218245f03075a5d3fbec50009 *mc2000-12-31d2t04.flac
935e694dc4a63f8ee0949ef845e26ee5 *mc2000-12-31d2t05.flac
7db4c84be211df6b0d207c622d948c0a *mc2000-12-31d2t06.flac
fe4d32e57d10ddeaf197fc37e3441e63 *mc2000-12-31d2t07.flac
06bc4c8b2f81f58449dba0642b17bb1b *mc2000-12-31d2t08.flac
ccfea77d58f74f3f27f64e52d233b2f9 *mc2000-12-31d3t01.flac
cff48a373b83db3dfc11f78ab6423a52 *mc2000-12-31d3t02.flac
180f65b03c0fec62b17ab1863207b424 *mc2000-12-31d3t03.flac
596c00ea76449bbf45db06153450da50 *mc2000-12-31d3t04.flac
172e0ed49091cfe45ebb49581c1bc036 *mc2000-12-31d3t05.flac
f84851cb5e04d6824214a768ebedd081 *mc2000-12-31d3t06.flac
0a9058186ab46e8de8aa79bef2748b81 *mc2000-12-31d3t07.flac

shntool:
length expanded size cdr WAVE problems fmt ratio filename
9:20.15 98819324 B --- -- ---xx flac 0.6489 mc2000-12-31d1t01.flac
13:54.58 147254060 B --- -- ---xx flac 0.6033 mc2000-12-31d1t02.flac
11:31.24 121948892 B --- -- ---xx flac 0.6047 mc2000-12-31d1t03.flac
13:23.60 141790364 B --- -- ---xx flac 0.6082 mc2000-12-31d1t04.flac
10:55.51 115661996 B --- -- ---xx flac 0.5912 mc2000-12-31d1t05.flac
11:27.22 121238588 B --- -- ---xx flac 0.6438 mc2000-12-31d1t06.flac
6:40.11 70585916 B --- -- ---xx flac 0.5904 mc2000-12-31d1t07.flac
0:34.04 6007052 B --- -- ---xx flac 0.5163 mc2000-12-31d1t08.flac
1:20.17 14152028 B --- -- ---xx flac 0.5422 mc2000-12-31d1t09.flac
7:29.73 79375340 B --- -- ---xx flac 0.6128 mc2000-12-31d2t01.flac
5:43.63 60653420 B --- -- ---xx flac 0.6303 mc2000-12-31d2t02.flac
1:29.49 15814892 B --- -- ---xx flac 0.4951 mc2000-12-31d2t03.flac
13:30.45 142989884 B --- -- ---xx flac 0.6029 mc2000-12-31d2t04.flac
12:36.68 133518380 B --- -- ---xx flac 0.5868 mc2000-12-31d2t05.flac
8:11.49 86727692 B --- -- ---xx flac 0.6020 mc2000-12-31d2t06.flac
12:10.29 128840252 B --- -- ---xx flac 0.5739 mc2000-12-31d2t07.flac
14:33.68 154157180 B --- -- ---xx flac 0.5996 mc2000-12-31d2t08.flac
10:26.19 110471132 B --- -- ---xx flac 0.6822 mc2000-12-31d3t01.flac
8:15.02 87322748 B --- -- ---xx flac 0.6114 mc2000-12-31d3t02.flac
13:22.71 141639836 B --- -- ---xx flac 0.6072 mc2000-12-31d3t03.flac
1:57.31 20711756 B --- -- ---xx flac 0.6294 mc2000-12-31d3t04.flac
8:40.01 91730396 B --- -- ---xx flac 0.6501 mc2000-12-31d3t05.flac
3:38.15 38490524 B --- -- ---xx flac 0.5249 mc2000-12-31d3t06.flac
11:28.11 121389116 B --- -- ---xx flac 0.6407 mc2000-12-31d3t07.flac
212:42.31 2251290768 B 0.6108 (24 files)

No errors occured.

Reviews

There are no reviews yet. Be the first one to write a review.
DOWNLOAD OPTIONS
In Collection
Max Creek
In Collection
Live Music Archive
Uploaded by
fryinbri
on 12/28/2009
Views
453
Favorites
1
PEOPLE ALSO FOUND
Max Creek
by Max Creek
6,446
0
0
Source: Master Soundboard Cassette Sony D5 Maxell XLII
Max Creek
by Max Creek
635
1
0
Source: SBD>DAT(SonyTCD-8)
Max Creek
by Max Creek
1,569
1
2
( 2 reviews )
Source: AUD(Beyers201's)>DAT(SonyTCD-8)
Max Creek
by Max Creek
274
1
0
Source: SBD>Analog Master(MarantzPMD-430)
Max Creek
by Max Creek
702
2
0
Source: SBD>Analog Master(MarantzPMD-430)
Max Creek
by Max Creek
452
1
0
Source: SBD>Cass Master(MarantzPMD-430)
Max Creek
by Max Creek
1,005
2
1
( 1 reviews )
Source: SBD>DAT(SonyTCD-8);Schoeps CMXY4V to Sound Devices 744T 24/96 khz>WAV
Max Creek
695
1
0
Source: SBD>DAT(SonyTCD-8)
Max Creek
2,278
1
0
Source: SBD>DAT(SonyTCD-8)
Max Creek
by Max Creek
10,336
1
0
Source: SBD>DAT(SonyTCD-8)